The 100 Season 4 Megalinks

- umbrae/reddit-top-2. Raised By Wolves Season 1 (2020) Complete HMAX 1080p WEB-DL x264 HEVC DDP5. Rothenberg. Monty and Harper’s son, Jordan, fill them in on what happened after they went to sleep and how his parents never. Planet Earth II Season 1 Episode 4 S01E04 Free Download,Planet,Earth,II,Season,1,Episode,4,S01E04,Free,Download, Planet Earth II Season 1 Episode 4 S01E04 Free Download 1. Date: Apr 4, 2006 to Mar 25, 2010 [MyAnimeList] Score: 8. In his thesis for the dissertation for the degree of Philosophiae Doctor at the University of Tromsø, Jan Magne Gjerde (Gjerde, 2010) suggests that the rock carvings in Alta are thousand years older than previously assumed: Phase 1: 5200-4200 BC Phase 2: 4200-3000 BC Phase 3: 3000-2000 BC. Kali Ini Admin Akan Membagikan Sebuah Informasi Mengenai The 100 Season 4 Bloopers , Semoga Bermanfaat. 4) Preparing for the masses who will come closer to D(eportation)-Day itself A huge hangar has been rented and is being filled up with emergency equipment A lot must be bought in the very near future, with rented trucks, before the army closes down the area Only with your generous help can it be done With Love of Israel,. Released June 19th, 1998, 'The X Files' stars David Duchovny, Gillian Anderson, Mitch Pileggi, William B. 31 December 2019 31 Dec 2019. watch The 100 S04E11 in your mobile android or iOS smartphone devices in mp4 video format online. 2160p resolution for breathtaking HD images. The first season of House premiered November 16, 2004, and ended May 24, 2005. Meanwhile, Octavia seizes the opportunity to help a friend escape, and a terrifying event brings Clarke and Bellamy closer. An open world full of mazes and enemies. In Nairatips, you'll learn how to start successful blogs, make money blogging through Affiliate Marketing, Sponsored Posts and Blogging tips. The only bad part about The 100’s season 4 finale is that we’ll have to wait a year to figure out what we witnessed in the last five minutes. Cheap Digital movies and deals. Watch "The 100 Season 4 Episode 1" online now only on Fmovies. These are different from the fast affiliate numbers which are just estimates of the actual ratings. The 100 Season 4 Episode 13 ''Praimfaya'' ~ Full episode ~ The CW. 2016 #16 Perverse Instantiation: Part Two Thursday, May 19th, 2016. [ Cellphone chimes ] Rey: Let's find out what. First Released. Geld, your Ravenous is a powerful unique skill, I’ll grant you that. 1 Atmos [ESub] [EP 01-10 Added] October 5, 2020 The First Purge (2018) BluRay 1080p 10bit x265 HEVC DD+5. You are using an older browser version. Since its debut on December 17, 1989, 620 episodes of The Simpsons have been broadcast. with a top prize of £2,000. Like and Share our website to support us. 30 Rock Season 4. The Dominator is approx. Season seven was always on the cards, with CW boss Mark. Phase 4: 900-100 B. In the finale, “Praimfaya” arrived to change the Earth forever, yet humanity can claim. 2016 #16 Perverse Instantiation: Part Two Thursday, May 19th, 2016. Noté /5 : Achetez My Name is Earl : L'intégrale des Saison 1 à 4-Coffret 16 DVD au meilleur prix : Séries TV Livraison gratuite dès 25€. This is a dataset of the all-time top 1,000 posts, from the top 2,500 subreddits by subscribers, pulled from reddit between August 15–20, 2013. > > Is that all? I can see your not entirely bothered by the problem. this is the FitGirl repack, just added to a RAR file for easy downloading. The premiere of the season 3 took place 21 Jan. Kali Ini Admin Akan Membagikan Sebuah Informasi Mengenai The 100 Season 4 Bloopers , Semoga Bermanfaat. 4 GB) Black Mirror (2011) - S02E03 - The Waldo Moment (1080p BluRay x265. 98 Summary: Sypnosis : The Amanto, aliens from outer space, have invaded Earth and taken over feudal Japan. It gets a bit hot. Resimde gördüğünüz karakterleri yazınız. It combines two genres, including drama and science fiction. You find sporadically located large seedling mango trees which bear fruit once in 4-5 years. But you’re not a predator. The fight to survive has torn The 100 apart, turned them against each other, and taken the lives of their closest friends. Bellamy and his friends face judgement for their crimes against the Ice Nation. Season Five is the fifth season of The CW television series The 100. easter 2031, Visalia Mall is a family-friendly shopping center located in the San Joaquin Valley. Season 4 of the 100 is very good despite the fact that many (and good) characters died in season 3. Posted on June 4, 2019 by starboymusic Anthony Joshua will be having a re-match with Andy Ruiz in November, following his defeat at Madison Square in New York on Saturday. Rey: Nikki said that victor had done over 100 searches on her name over the last few weeks. The Office (US) Complete (2005-2013) [720p] (self. at informieren!. Noté /5 : Achetez My Name is Earl : L'intégrale des Saison 1 à 4-Coffret 16 DVD au meilleur prix : Séries TV Livraison gratuite dès 25€. The Office Megalinks can offer you many choices to save money thanks to 19 active results. News chronological archives; 19:52 Healin' Good Precure Film Reveals 2 Guest Cast Members; 17:00 North American Anime, Manga Releases, February 14-20; 16:40 100-nichi go ni Shinu Wani Anime Film. YOU ARE WATCHING: The 100: Season 4. EPISODE 1: SANCTUM. My Predaceous instincts will it to be done! I can. [74] Dorothy Rabinowitz aseguró en su columna de The Wall Street Journal que «los primeros episodios aseguraban que Mentes criminales pudo haber sido un éxito y con razón», elogiando el trabajo de Matthew Gray Gubler y la actuación de Mandy Patinkin. TRG Dominator is the iconic firearm carried by enlisted Inspection and Enforcement officers of the Public Safety Bureau. What's Octavia trying to do?. app of henry danger games, captain henry danger videos and kid danger game. September 8, 2018 - 22:21. Subscribe on youtube for latest links. 3 October 2017 3 Oct 2017. if you go to www. Bleach Season 4. The 100 Season 4 (2017). Tersedia 360 480 720. Vanessa Valladares is soaking up the sun in Australia!. Identifier LifeBBCDocumentry2009720pH264. Next Episode Previous Episode. Only until season 4, 5 at the latest. 976 (24000/1001) FPS Color space : YUV Chroma subsampling : 4:2:0 Bit depth : 8 bits Scan type : Progressive Bits/(Pixel*Frame) : 0. TV Show : The 100. Top Netflix TV Shows Online, The 100 TV Series Download HD quality full Streaming english subbed. This is season 5 of the show, and it’s getting a little. Mob Psycho 100 54 Videos Attack on Titan 0 Videos Black Clover 166 Videos. Director: N/A. Please do not steal links, we'd really appreciate it! PSA: Please go to twitter for more movie links as well as the movie request form!. The new discount codes are constantly updated on Couponxoo. (I think your sums are slightly out more like $38 a > year. 00 FileSave FileSave2 Financial_Year Financial8 Financials FinancialSvc102 FinancialSvc103 FinancialSvc104 FinancialSvc105 FinancialSvc106 FinancialSvc107 FinancialSvc108 FinancialSvc109 FinancialSvc110 FinancialSvc111 Finc_1 Finc_10 Finc_2 Finc_3 Finc_4 Finc_5 Finc_6 Finc_7 Finc_8 Finc_9 FINPYY finyear1 finyear2 finyear3 finyear4. Curious George encourages children to explore science, engineering, and math in the world around them. it is seriously the coolest site ever! i just found out about an hour ago and ive already downloaded 3 movies. It forms the thirteenth season of Bleach and is directed by Noriyuki Abe and produced by TV Tokyo, Dentsu and Studio Pierrot. Sci-Fi - Action - Thriller. Share this movie link to your friends. Update Episodes for Season 4. Gee, I can save $4. HBO’s World Championship Boxing has Jermain Taylor taking on Jeff Lacy and you can see the replay of Joe Calzaghe’s win over Roy Jones, Jr. This is an anime site exclusively for anime download. Season 4 opens with show creator Jason Rothenberg and cast members together discussing the season three finale, what fans can expect in season four and answer fan questions. for TV: "Name of the TV Show, Season & Episode Number, Quality ie: HDTV/720p,. Game of Thrones season 7 torrents: Downloads targeted by HBO. You punch in all the shows you follow (for me, that's a lot), and then with the widget you can see what episodes are upcoming, and which were recently aired. Riza: You already have. Download atau nonton langsung tv series The 100 Season 4. In addition, Mecca Bingo offers several jackpot games, season events with amazing rewards, and monthly spinners. Track The 100 season 5 episodes. Victor: Name your price. The season's sub-plot revolves around billionaire Edward Vogler making a $100 million donation to the hospital. No one gives as shit about most of these shows. The 100 Complete Series Season 1-6 DVD Bundle. Without warning, millions of mysterious alien “doors” suddenly appear around the globe. And that’s a good thing. Again writers decided to eliminate major characters from the show. The series. The 100 season 4 episode guide on TV. I hope season 5 is as good as this one. on the other hand Octavia assumes the lead. [S02E01] Fringe. Hopefully. The 100 Season 5 premieres on Tuesday, but do you remember all the important things from Season 4? Don’t miss a beat with this reminder. Tidak ada iklan yang mengganggu. The first half of it was defined by shoddy character motivations and oversized villains. Watch all 13 The 100 episodes from season 4,view pictures, get episode information and more. But what American Horror Story Season 9 Episode 1 shows is that instead of trying to best what came. Posting HD & logoless TV shows and movies! ♥♥♥ Please check the 'REQUEST LIST' before requesting anything. To submit requests for assistance, or provide feedback regarding accessibility, please contact. MEGA provides free cloud storage with convenient and powerful always-on privacy. Download to watch offline and even view it on a big screen using Chromecast. Date: Apr 4, 2006 to Mar 25, 2010 [MyAnimeList] Score: 8. See full list on the100. First came the. The 100, the CW's hit dystopian fantasy series, didn't have much new footage to share at San Diego Comic Con back in July, but what they showed was quite monumental: The Grounder city of Polis is. The only known survivors are the residents of twelve space stations in Earth's orbit prior to the war. The premiere opens right where season 5 ended, with Clarke and Bellamy staring out at a new planet. Trees will be there but they will not be very productive. The Flash Season 4 Complete WEB-HD 480p & 720p May 23, 2018; Bumblebee (2018) BluRay 480p, 720p, & 1080p March 23, 2019; Chernobyl Season 1 Complete WEB-HD 480p & 720p. For comparisons: Season six of The 100 on The CW averaged a 0. Update Episodes for Season 4. "The clock is ticking, and it has been since we landed on this terrible, beautiful planet. Credit to cast and crew of The 100. leechers: 4 Added on January 9, 2011 by in TV. i am watching digimon video from online with English subtitles that i can understand for free. arrow saison 6 arrow saison 5 arrow saison 6 streaming arrow saison 4 arrow saison 1 arrow saison 3. The 100 season 6, episode 4 “The Face Behind the Glass,” is a stunning, heartbreaking hour of television. The 100: Season 4 Episode 4 Clip - A Lie Guar. In Nairatips, you'll learn how to start successful blogs, make money blogging through Affiliate Marketing, Sponsored Posts and Blogging tips. It’s an official sequel to Z with Toriyama involved in production, and its early episodes cover the events of the films Battle of the Gods and Resurrection F. - umbrae/reddit-top-2. hey, guys today we come with a new post about telegram groups invite link list. The latest ones are on Mar 23, 2021. The 100: Season 4. 17 Aug 2017 - 11 minWatch The Penguins Of Madagascar - 3x01 Feline Fervor by Series on. The 100 - season 4 Season 1 was a blockbuster released on 2017 in United States Story: The 100 - season 4 starts with The series is set 97 years after a devastating nuclear war wiped out almost all life on Earth. Download Cartoon in Hindi anime Cartoon Movies in Hindi 480p 720p Animation Series in Hindi free Cartoon series movies Pokémon Series English anime 9xanimation 9xanime. com's best TV lists, news, and more. Only until season 4, 5 at the latest. The 100 Season 4 ( Full Series ) The 100 - season 4 - Episode 15. 0 Audio, 16x9 Video, English Subtitles SPECIAL FEATURES: Art Gallery, Clean Opening and Endings Buy now. AnimeBatchs adalah sebuah website fanshare tempat download Anime Batch gratis subtitle indonesia. Clarke and her friends struggle with how to proceed after the fate of the world is revealed. Rey: Nikki said that victor had done over 100 searches on her name over the last few weeks. As a result, a prohibition on swords has been established, and the samurai of Japan are treated with disregard as a consequence. This is a dataset of the all-time top 1,000 posts, from the top 2,500 subreddits by subscribers, pulled from reddit between August 15–20, 2013. Cheap Digital movies and deals. News chronological archives; 19:52 Healin' Good Precure Film Reveals 2 Guest Cast Members; 17:00 North American Anime, Manga Releases, February 14-20; 16:40 100-nichi go ni Shinu Wani Anime Film. The series is created by J. The Blue Racers also demolished the Huntington Hammer this season, although they were the only team of the 3 to not top 100 points, settling for a 98-6 victory. The first season of House premiered November 16, 2004, and ended May 24, 2005. 2160p resolution for breathtaking HD images. 【クーポン獲得】 足湯 【4980円以上送料無料】 ツインバード 【4980円以上送料無料】 【クーポン獲得】 フルーツビネガーメーカーEH-DF86G 3個セット:へるすぴあ店送料無料 史上一番安い短納期!star vs. Only Seedlings will survive and they will also bear fruits. " Now we're cooking with hydrazine! Season 4 hasn't been slow by any standards, but episode 8 kicked it up another level… like Jackson controlling a. Far from it. AHS84 isn't the first series to attempt to bring the slasher genre to television. TV Show : The 100. Asta and Yuno. Update Episodes for Season 4. the 100 season 4 | Tumblr. For example, the CW Spring line up, the 100 is always only featured for one clip for about 3 seconds. We Will Rise The 100 Season 4. 1 of 2 users found this helpful11. In Nairatips, you'll learn how to start successful blogs, make money blogging through Affiliate Marketing, Sponsored Posts and Blogging tips. 0 Panda) Black Mirror (2011) - S00E01 - White Christmas (1080p WEB-DL x265 Panda). it is seriously the coolest site ever! i just found out about an hour ago and ive already downloaded 3 movies. It has 5 seasons with 4,5,4,4,2. 1 — marking the tune’s fifth time at the top spot. the-100-season-4. The 100 is a series that has built a reputation for high stakes, playing for keeps and not backing down from the dark scenarios it creates. 1 Atmos [Dual Audio] ESub. Requests, Enquiries or Complaints?. With Crunchyroll, you can watch for free with ads, and paid ad-free. 4 GB) Black Mirror (2011) - S02E01 - Be Right Back (1080p BluRay x265 Panda). Jul 21, 2017. /r/megalinks ” now defunct, but plenty of archived material April 8, 2020 at 4:56 pm. Finding Judas is a 3rd season episode of House which first aired on November 28, 2006. leechers: 4 Added on January 9, 2011 by in TV. The 100 season 6, episode 4 “The Face Behind the Glass,” is a stunning, heartbreaking hour of television. Released June 19th, 1998, 'The X Files' stars David Duchovny, Gillian Anderson, Mitch Pileggi, William B. Tidak ada iklan yang mengganggu. Davis The PG-13 movie has a runtime of about 2 hr 1 min, and received a user score of 68. The 100 has totally reinvented itself (again) in Season 6, and there’s still so much to learn about the lost civilization Clarke and her friends have found on the alien moon of Sanctum. The 100 season 6, episode 4 “The Face Behind the Glass,” is a stunning, heartbreaking hour of television. 6 GB) Black Mirror (2011) - S02E02 - White Bear (1080p BluRay x265 Panda). Season 5 guide for The 100 TV series - see the episodes list with schedule and episode summary. com/q7ybqVlNeT. Credit to cast and crew of The 100. Despite their best efforts, war appeared unavoidable, until a new, even more dangerous threat – one that had been quietly rising all along. AnimeBatchs adalah sebuah website fanshare tempat download Anime Batch gratis subtitle indonesia. The Dominator is approx. Black Mirror (2011) Season 2 S02 (1080p Mixed x265 HEVC 10bit AAC 2. app of henry danger games, captain henry danger videos and kid danger game. The 100 saison 4 : Toutes les infos et spoilers sur la saison 4 de The 100 sont sur melty ! Les acteurs de The 100 vous manquent ? A nous aussi, heureusement on peut tous les revoir le sourire aux lèvres dans les bloopers de la saison 4 !. Tidak ada iklan yang mengganggu. Arrow Saison 3 720p Hd 14. The first half of it was defined by shoddy character motivations and oversized villains. These are different from the fast affiliate numbers which are just estimates of the actual ratings. The 100: Season 4. The fight to survive has torn The 100 apart, turned them against each other, and taken the lives of their closest friends. The 100 - Season 4 Beschreibung: Set 97 years after a nuclear war has destroyed civilization, when a spaceship housing humanity's lone survivors sends 100 juvenile delinquents back to Earth in hopes of possibly re-populating the planet. Only until season 4, 5 at the latest. Bleach Season 4. I hope season 5 is as good as this one. My Predaceous instincts will it to be done! I can. Set 97 years after a nuclear war has destroyed civilization, when a spaceship housing humanity's lone survivors sends 100 juvenile delinquents back to Earth in hopes of possibly re-populating the planet. Watch short videos about the-100-season-4-subtitles on Likee created by Likee Official. 168 Stream size : 351 MiB (80%) Title : The. Kali Ini Admin Akan Membagikan Sebuah Informasi Mengenai The 100 Season 4 Bloopers , Semoga Bermanfaat. The Hundred, The 100. See more ideas about the 100, the 100 show, bellarke. it even has an avatar show that wasnt even shown yet "The day of black sun part 2"! it is amazing!. You punch in all the shows you follow (for me, that's a lot), and then with the widget you can see what episodes are upcoming, and which were recently aired. In Nairatips, you'll learn how to start successful blogs, make money blogging through Affiliate Marketing, Sponsored Posts and Blogging tips. Track The 100 season 5 episodes. YOU ARE WATCHING: The 100: Season 4. You can watch this episode in above video player. Aug 21, 2017 - Explore Fallen_Angels's board "The 100" on Pinterest. Description In The 100 - Season 4 continues where the previous season has just ended. Simply pick a site below and click "Watch Now Some of the links may be broken, please upvote the working and good links so other users see those links for The 100 Season 4 Episode 1 s04e01 at the. Empowerment of communities is the need of the hour and hence telegram groups are proving to be a powerful tool for doing so. 22 rating in the 18-49 demographic and 689,000 viewers. Starting at 9 a. My Hero Academia Season 4 The Pirates Anime Kaizoku is the best place to download anime series, anime movies, anime ova series and much more, providing you with the latest anime dose for free. - umbrae/reddit-top-2. Squishy! Black Clover - 4. It doesn't matter that the show has 7 seasons and is on its last season. Riza: You expect me to put a price on a man's life? Victor: I don't want to hurt him. First Released. There are some HUGE twists in #the100 Book 4: Rebellion. The 100 Season 4 Episode 13 ''Praimfaya'' ~ Full episode ~ The CW. Season 4 of the 100 is very good despite the fact that many (and good) characters died in season 3. on the program that. Mariah Carey’s ubiquitous hit, “All I Want for Christmas Is You,” leads the pack at No. Directed by: Mark Adamson. The 100 Season 4 ( Full Series ) The 100 - season 4 - Episode 15. The 100 Season 4 Episodes List. Bleach Season 1. (I think your sums are slightly out more like $38 a > year. [ Cellphone chimes ] Rey: Let's find out what. AnimeBatchs adalah sebuah website fanshare tempat download Anime Batch gratis subtitle indonesia. Still, we have a poor 4G network :) CptEric. It is loosely based on a 2013 book of the same name, the first in a book series by Kass Morgan. Kali Ini Admin Akan Membagikan Sebuah Informasi Mengenai The 100 Season 4 Bloopers , Semoga Bermanfaat. You punch in all the shows you follow (for me, that's a lot), and then with the widget you can see what episodes are upcoming, and which were recently aired. megalinks) submitted 2 years ago *. Bleach Season 4. Seasons and episodes. It doesn't matter that the show has 7 seasons and is on its last season. You can get the best discount of up to 50% off. Episodes = 13. Set 97 years after a nuclear war has destroyed civilization, when a spaceship housing humanity's lone survivors sends 100 juvenile delinquents back to Earth in hopes of possibly re-populating the planet. Rey: Nikki said that victor had done over 100 searches on her name over the last few weeks. The CW does promote the 100, but it doesn't push is like it does all the other shows. All videos. With its inviting atmosphere, fantastic mix of more than 70 stores you know and love, restaurants, and an exciting children’s play area, this is more than a mall - it’s a retail destination for the whole family. I already searching that old digimon DVD Digimon: Digital Monsters - The Official Seasons 1-4 Collection [32 Discs] [DVD] that have a English dub that I cannot understand what they are saying and I want a English subtitles for deaf and hard hearing that I can understand what they are saying. The 100 6x04 "The Face Behind the Glass" Season 6 Episode 4 Promo - CLARKE MAKES AMENDS – Clarke (Eliza Taylor) embraces the traditions of Sanctum and tries. And such was the case for Season 4, with it’s main. Anderen Nutzern gefiel auch. Y’know, just apocalypse stuff. "The clock is ticking, and it has been since we landed on this terrible, beautiful planet. 0 for Android. Peers contact each other to download new pieces, while at the same time, allowing the pieces they. Meanwhile, Octavia seizes the opportunity to help a friend escape, and a terrifying event brings Clarke and Bellamy closer. You can easily watch full episodes of The 100 TV Series. Subtitles TV Episode. In preparation for the seventh and final season of The 100, let’s take a look back at the events of Season 6. As a result, a prohibition on swords has been established, and the samurai of Japan are treated with disregard as a consequence. Some of the 100 accidentally eat nuts with powerfully hallucinogenic properties and lose their grasp on reality. Last season, our heroes found themselves at the epicenter of both the Grounder world and the struggle for Arkadia’s soul. Buy Henry Danger on Google Play, then watch on your PC, Android, or iOS devices. Episode 1 - "Echoes" Episode 2 - "Heavy Lies the Crown" Episode 3 - "The Four Horsemen" Episode 4 - "A Lie Guarded" Episode 5 - "The Tinder Box" Episode 6 - "We Will Rise" Episode 7 - "Gimme Shelter" Episode 8 - "God Complex" Episode 9. Tersedia 360 480 720. It consists of 13 episodes. Jul 21, 2017. The 100 is an American post-apocalyptic science fiction drama television series developed by Jason Rothenberg, which premiered on March 19, 2014, on The CW. The 100: Season 4 premiere could have benefited from a few less subplots, but still set up plenty of exciting elements going forward. Again writers decided to eliminate major characters from the show. NASCAR’s final event of the season, provided that ABC doesn’t cut off the end of the race in favor of America’s Funniest Home Videos, is the Ford 400 at 3:45 p. com's best TV lists, news, and more. watch The 100 S04E11 in your mobile android or iOS smartphone devices in mp4 video format online. We Will Rise The 100 Season 4. Director: N/A. These are different from the fast affiliate numbers which are just estimates of the actual ratings. Y’know, just apocalypse stuff. The Office Megalinks Overview. Disini kami menyediakan anime dengan format mkv dan mp4. Win $200 in bitcoin every hour - play for FREE!. My Predaceous instincts will it to be done! I can. 2160p resolution for breathtaking HD images. 90s style graphics. The 100 season 6, episode 4 “The Face Behind the Glass,” is a stunning, heartbreaking hour of television. you might need a good PC to play it, i have a 3070 and an i7-8700 and it runs fine at 60 FPS. by watch online full series The 100 S4E6 season 4 episode 6 - We Will Rise 2017 2 years ago 20 0. Phase 5: 100 B. on the other hand Octavia assumes the lead. YOU ARE WATCHING: The 100: Season 4. " Now we're cooking with hydrazine! Season 4 hasn't been slow by any standards, but episode 8 kicked it up another level… like Jackson controlling a. The premiere opens right where season 5 ended, with Clarke and Bellamy staring out at a new planet. In the finale, “Praimfaya” arrived to change the Earth forever, yet humanity can claim. It is loosely based on a 2013 book of the same name, the first in a book series by Kass Morgan. Search Results: "The 100 season 4". Tersedia 360 480 720. Last season, our heroes found themselves at the epicenter of both the Grounder world and the struggle for Arkadia’s soul. You are watching: The 100: Season 4. The series is created by J. Full episodes of your favourite shows available at LoadTV! The series "The 100 " tells us about those who have managed to run away live already three generations at the space station with the symbolical name "Ark". Beginning with ', the second season further developed into the plot of the fear of company downsizing, along with the introduction of new characters and developing some of the minor ones—especially that of (). The 100 is the best TV show right now. Updating Sonarr v2 to v3. When he reluctantly agrees to pursue a wrongful death lawsuit against the biggest client of Cooperman & McBride, the massive law firm he helped create, Billy and his ragtag team uncover a vast and deadly conspiracy, pitting them all in a life or death trial against the ultimate. The new discount codes are constantly updated on Couponxoo. Like My Chemical Romance, but on TV. Download atau nonton langsung tv series The 100 Season 4. TV series The 100 Season 4 is available for free on tvshows. The Dominator is approx. Working alongside, and, often, against Jimmy, is “fixer” Mike Erhmantraut. Club wrote: "Before we even get to tonight's action-packed finale of The 100, it needs to be said that this has been a rocky season. Cheap Digital movies and deals. Seasons and episodes. Actors: Eliza Taylor, Bob Morley, Marie Avgeropoulos, Isaiah Washington. The 100 Season 4 Episodes List. Still, we have a poor 4G network :) CptEric. Samurai Jack is an American action-adventure animated television series created by Genndy Tartakovsky for Cartoon Network. The season's sub-plot revolves around billionaire Edward Vogler making a $100 million donation to the hospital. The 100: Season 4. The Flash Season 4 Complete WEB-HD 480p & 720p May 23, 2018; Bumblebee (2018) BluRay 480p, 720p, & 1080p March 23, 2019; Chernobyl Season 1 Complete WEB-HD 480p & 720p. Season 4 guide for The 100 TV series - see the episodes list with schedule and episode summary. Ama iyi anlaşmaları gerekmektedir. For comparisons: Season six of The 100 on The CW averaged a 0. In addition to the mandatory tagging of the post titles, ie: [TV] - [MOVIE] you also MUST format your titles correctly when posting any content, manner for Movies: "Name of the Movie, Year, Quality ie: 1080p/720p, Media Type ie: BluRay/DVDRip, Codec ie: x264/x265, & File Size" and manner for TV: "Name of the TV Show, Season & Episode Number, Quality ie: HDTV/720p, Codec ie: x264/x265 & File. It follows 'Jack', an unnamed [a 1] Japanese samurai who, after nearly. Tersedia 360 480 720. 4-Disc Blu-ray Set, 28 Episodes (224-251), English and Japanese Stereo 2. TV Show : The 100. The video keeps buffering? Just pause it for 5-10 minutes then continue playing!. The first DVD set, containing 12 episodes, was released on November 22, 2011. nz/#F!Yhs2jbZJ!ywgIYtNewyDrA4rOh4pb_g Gossip Girl. the forces of evil 1-2季+第三季ep1-4翻譯總集. The 100: Season 4 With the discovery that radiation from derelict nuclear reactors is slowly poisoning Earth, the 100 must determine how to curb the menace before it destroys the planet’s entire human population. Get all of Hollywood. First came the. Dazu finden sich auf dieser Homepage auch zahlreiche Informationen, Arbeitshilfen und Broschüren. Genres: Drama, Mystery, Sci-Fi. Update Episodes for Season 4. The 100's latest seasons have revolved around themes of false gods and cults of personality putting their faith in less than altruistic figures. " Among them is the easily flustered yet brave Bell Cranel, the sole member of the Hestia Familia. The 100 saison 4 : Toutes les infos et spoilers sur la saison 4 de The 100 sont sur melty ! Les acteurs de The 100 vous manquent ? A nous aussi, heureusement on peut tous les revoir le sourire aux lèvres dans les bloopers de la saison 4 !. 1 — marking the tune’s fifth time at the top spot. Y’know, just apocalypse stuff. Hey GuysI own nothing, but the editing. The 100: Season 4 Digital. 00 FileSave FileSave2 Financial_Year Financial8 Financials FinancialSvc102 FinancialSvc103 FinancialSvc104 FinancialSvc105 FinancialSvc106 FinancialSvc107 FinancialSvc108 FinancialSvc109 FinancialSvc110 FinancialSvc111 Finc_1 Finc_10 Finc_2 Finc_3 Finc_4 Finc_5 Finc_6 Finc_7 Finc_8 Finc_9 FINPYY finyear1 finyear2 finyear3 finyear4. Сериал Сотня 4 сезон онлайн. by watch online full series The 100 S4E6 season 4 episode 6 - We Will Rise 2017 2 years ago 20 0. It is business as usual in the massive city of Orario, where legions of adventurers gather to explore the monster-infested "Dungeon. com it is really cool! i just found it out! it is free you just have to register so you can log in to download the movies. Tersedia 360 480 720. January 20, 2021 - 4:04pm. 0 Audio, 16x9 Video, English Subtitles SPECIAL FEATURES: Art Gallery, Clean Opening and Endings Buy now. Win $200 in bitcoin every hour - play for FREE!. Digital Bundles/Box Sets with The 100: Season 4 (1 bundle). Clarke and her friends struggle with how to proceed after the fate of the world is revealed. All episodes are available legally on Crunchyroll. Please use a supported version for the best MSN experience. It continues the seventh and final season's high bar of storytelling, even if a decision to go for a juicy, plot-twist ending completely trashes what little. According to reports from AnimeJapan 2019 which was held from 23 Mar 2019 – 26 Mar 2019, Danmachi Season 2 is likely to return in 2019 and the official key visuals, trailer, and cast members are announced. 100,000 members can be supported in a single group and we can have an unlimited amount of such groups. You'll love this website as you will travel through its features. THE 100 SEASON 1 SEASON 2 SEASON 3. The 100: Season 4 premiere could have benefited from a few less subplots, but still set up plenty of exciting elements going forward. The 100 (TV Series 2014–2020) cast and crew credits, including actors, actresses, directors, writers and more. Сериал Сотня 4 сезон онлайн. Home » S, T or U » The 100 » Season 04. 5-million The Looney Tunes Show. the-100-season-4-subtitles. " Now we're cooking with hydrazine! Season 4 hasn't been slow by any standards, but episode 8 kicked it up another level… like Jackson controlling a. Game of Thrones season 7 torrents: Downloads targeted by HBO. Related stories from TheWrap: CW Sets Premiere Dates for 'Riverdale,' 'The 100,' 'iZombie'. And that’s a good thing. The 100 (TV Series 2014–2020) cast and crew credits, including actors, actresses, directors, writers and more. Update Episodes for Season 4. Finding Judas is a 3rd season episode of House which first aired on November 28, 2006. With the help of his demi-human supporter Liliruca Arde and competent blacksmith Welf Crozzo, Bell has earned the title of Little Rookie by becoming Orario's fastest. Nominal bit rate : 1 100 kb/s Width : 720 pixels Height : 360 pixels Display aspect ratio : 2. 4) Preparing for the masses who will come closer to D(eportation)-Day itself A huge hangar has been rented and is being filled up with emergency equipment A lot must be bought in the very near future, with rented trucks, before the army closes down the area Only with your generous help can it be done With Love of Israel,. THE 100 SEASON 1 SEASON 2 SEASON 3. Win $200 in bitcoin every hour - play for FREE!. The 100 - Staffel: 3. Movies: The 100: Season 4 Director: N/A Cast: Eliza Taylor, Bob Morley, Marie Avgeropoulos, Isaiah Washington Production Co: Genres: Drama, Mystery, Sci-Fi Runtime: 43 min Country: USA Release Date: 2017. You’re a scavenger. It consists of 13 episodes. The 100 is not a show like that. Season 2 - 720p E1-12 Season 3 - 720p E1-13 Season 4 - 720p E1-13 (w/o E7) (including icarly special) Powered by Create your own unique website with customizable. It's official: season six of The 100 has been and gone and we're now looking ahead to the next and final chapter. The role of Clarke in this season events is much smaller. For comparisons: Season six of The 100 on The CW averaged a 0. Whether or not The 100 's sci-fi Season 3 endgame lived up to the prior year's showdown with Mount Weather, Season 4 is preparing to introduce an enemy with no allegiance: nature itself. Do you have a video playback issues? Please disable AdBlocker in your browser for our website. It forms the thirteenth season of Bleach and is directed by Noriyuki Abe and produced by TV Tokyo, Dentsu and Studio Pierrot. Hey GuysI own nothing, but the editing. Share on Facebook. the forces of evil 1-2季+第三季ep1-4翻譯總集. These are different from the fast affiliate numbers which are just estimates of the actual ratings. Riza: You expect me to put a price on a man's life? Victor: I don't want to hurt him. We manage to see the power struggle for and selection of. Clarke and Bellamy go on a mission to find supplies for approaching winter. No one gives as shit about most of these shows. The 25-year-old wore a yellow bikini while hanging out at the beach on Friday (March 5) in Sydney, Australia. Hier finden sich viele Informationen über unsere Arbeit, Angebote und zu inhaltlichen Themen. Next Episode Previous Episode. We have Encoded over 800+ Series and 30,000+ episodes and provide Free Anime Download of them all. Tabi gelen kişiler kendi aralarında liderlik yarışına girme çabasındadırlar. nz/#F!QpoDzJSI!TIAcy1rV43bl3SXt6_UOeA The Secret Circle; https://mega. app of henry danger games, captain henry danger videos and kid danger game. Trees will be there but they will not be very productive. See more ideas about the 100, the 100 show, bellarke. 30 Rock Season 4. The Simpsons Seasons 1-28 DVD Photos. The 100 season 4 episode guide on TV. I do not own any the gifs unless stated otherwise and will happily credit the creators or. You’re a scavenger. Simply pick a site below and click "Watch Now Some of the links may be broken, please upvote the working and good links so other users see those links for The 100 Season 4 Episode 1 s04e01 at the. The series is set 97 years after a devastating nuclear war wiped out almost all life on Earth. Season 5 guide for The 100 TV series - see the episodes list with schedule and episode summary. The 100 spoilers follow. You are using an older browser version. Share this movie link to your friends. You find sporadically located large seedling mango trees which bear fruit once in 4-5 years. In Season 4, you will not be as limited by game mode. Cheap Digital movies and deals. Win $200 in bitcoin every hour - play for FREE!. it is seriously the coolest site ever! i just found out about an hour ago and ive already downloaded 3 movies. Share on Facebook. Hopefully. for TV: "Name of the TV Show, Season & Episode Number, Quality ie: HDTV/720p,. Beginning with ', the second season further developed into the plot of the fear of company downsizing, along with the introduction of new characters and developing some of the minor ones—especially that of (). The 100 season 6, episode 4 “The Face Behind the Glass,” is a stunning, heartbreaking hour of television. Do you have a video playback issues? Please disable AdBlocker in your browser for our website. at informieren!. 168 Stream size : 351 MiB (80%) Title : The. Jul 21, 2017. The fruit buds in mango are at shoot terminal which is the first to be damaged by cold leading to loss in yield. m3u8 #EXTINF:-1,SP: AXN HD http://xtreme. Full episodes of your favourite shows available at LoadTV! The series "The 100 " tells us about those who have managed to run away live already three generations at the space station with the symbolical name "Ark". The 100 - Season 1. org Tis the season to be jolly: A record 39 holiday songs have dominated this week’s Billboard Hot 100 chart, including nine holiday tunes in the Top 10. So that we can improve our services to provide for you better services in further!. Share this movie link to your friends. watch The 100 S04E11 in your mobile android or iOS smartphone devices in mp4 video format online. It has 5 seasons with 4,5,4,4,2. You find sporadically located large seedling mango trees which bear fruit once in 4-5 years. Samurai Jack is an American action-adventure animated television series created by Genndy Tartakovsky for Cartoon Network. Anderen Nutzern gefiel auch. The only bad part about The 100’s season 4 finale is that we’ll have to wait a year to figure out what we witnessed in the last five minutes. Sci-Fi - Action - Thriller. Rothenberg. First Released. Bleach Season 3. Season 5 guide for The 100 TV series - see the episodes list with schedule and episode summary. The 100 - Staffel: 3. the 100 season 4 | Tumblr. The 100 - Season 4. Season 4 guide for The 100 TV series - see the episodes list with schedule and episode summary. But every other show pops back up multiple times. 2016 #16 Perverse Instantiation: Part Two Thursday, May 19th, 2016. Sonarr v3 will automatically convert the existing Sonarr v2 installation. Username: mega_links_freee Update: 2021-02-18 05:52:09 Date: 2020-06-29 16:16:40. 976 (24000/1001) FPS Color space : YUV Chroma subsampling : 4:2:0 Bit depth : 8 bits Scan type : Progressive Bits/(Pixel*Frame) : 0. Claim your free 50GB now!. The 100: Season 4. Victor: Name your price. AnimeBatchs adalah sebuah website fanshare tempat download Anime Batch gratis subtitle indonesia. i am watching digimon video from online with English subtitles that i can understand for free. the forces of evil 1-2季+第三季ep1-4翻譯總集. We picked the best sites to stream s04e01. Let's see what happens in season 4 of The 100. The CW does promote the 100, but it doesn't push is like it does all the other shows. Share this movie link to your friends. Anderen Nutzern gefiel auch. We Will Rise The 100 Season 4. Tidak ada iklan yang mengganggu. Posting links to videos for editors and tv show/movie/music lovers for free downloading. Episode Ep. Watch all 13 The 100 episodes from season 4,view pictures, get episode information and more. The series is set 97 years a nuclear war has destroyed civilization, when a spaceship housing humanity';;;s lone survivors sends 100 juvenile delinquents back to Earth in hopes of possibly re-populating the planet. Bleach Season 1. It doesn't matter that the show has 7 seasons and is on its last season. arrow saison 6 arrow saison 5 arrow saison 6 streaming arrow saison 4 arrow saison 1 arrow saison 3. The Dominator is approx. Update Episodes for Season 4. Season 4 of The 100 rewards longtime viewers with a deeper look at their favorite characters, as well as adding exceptional nuance and depth to their thrilling. 0 with S-Recommendation, Clear Motion Rate 240, Wi-Fi Built-in, 3 USB, 4 HDMI Hi I've got a Samsung 55JS9000 which is HDR compatible and I can watch Netfix on the TV app in HDR. Arrow Saison 3 720p Hd 14. Since its debut on December 17, 1989, 620 episodes of The Simpsons have been broadcast. So that we can improve our services to provide for you better services in further!. The 100 - Season 4. You are watching: The 100: Season 4. I do not own any the gifs unless stated otherwise and will happily credit the creators or. I can't wait to hear what you think, but let's try to keep spoilers off Twitter. It is business as usual in the massive city of Orario, where legions of adventurers gather to explore the monster-infested "Dungeon. Only Seedlings will survive and they will also bear fruits. This is season 5 of the show, and it’s getting a little. Cheap Digital movies and deals. Posting links to videos for editors and tv show/movie/music lovers for free downloading. Patlamanın üzerinden 100 yıl sonra 100 uzay istasyonu sakini dünyaya sürgün edilir ve görevleri dünyanın yeniden yaşanabilir olup olmadığını araştırmaktır. The only bad part about The 100’s season 4 finale is that we’ll have to wait a year to figure out what we witnessed in the last five minutes. Das Bistum Trier präsentiert seine Homepage zu Jugendarbeit. 168 Stream size : 351 MiB (80%) Title : The. And such was the case for Season 4, with it’s main. The 100 Season 4 Episode 13 ''Praimfaya'' ~ Full episode ~ The CW. The 100: Season 1. If we’re gonna keep eating at each other, I’ll be the one to gain new skills from it first. The Simpsons Seasons 1-28 DVD Photos. The video keeps buffering? Just pause it for 5-10 minutes then continue playing!. tr uzantıları için başvuru alınmaktadır. Old TVShows moved Dexter's Lab from Re-upload because of takedown to Share on voat /v/MegaLinks 100 Blackfoot and Slim 108 Last But Not Beast. AHS84 isn't the first series to attempt to bring the slasher genre to television. It has 5 seasons with 4,5,4,4,2. this is the FitGirl repack, just added to a RAR file for easy downloading. com's best TV lists, news, and more. Ada banyak ukuran anime yang dishare disini, yaitu 360p, 480p, 720p, dan kadang kadang 1080p. arrow saison 6 arrow saison 5 arrow saison 6 streaming arrow saison 4 arrow saison 1 arrow saison 3. It doesn't matter that the show has 7 seasons and is on its last season. 4) Preparing for the masses who will come closer to D(eportation)-Day itself A huge hangar has been rented and is being filled up with emergency equipment A lot must be bought in the very near future, with rented trucks, before the army closes down the area Only with your generous help can it be done With Love of Israel,. Watch all 13 The 100 episodes from season 4,view pictures, get episode information and more. Bleach Season 3. Tersedia 360 480 720. Starting at 9 a. Tidak ada iklan yang mengganggu. 13 inches (33 cm) in length. 4 replies 187 retweets 551 likes. The 100 Season 6 - Videos. 2160p resolution for breathtaking HD images. 31 December 2019 31 Dec 2019. 0 Audio, 16x9 Video, English Subtitles SPECIAL FEATURES: Art Gallery, Clean Opening and Endings Buy now. Watch "The 100 Season 4 Episode 1" online now only on Fmovies. The Flash Season 4 Complete WEB-HD 480p & 720p May 23, 2018; Bumblebee (2018) BluRay 480p, 720p, & 1080p March 23, 2019; Chernobyl Season 1 Complete WEB-HD 480p & 720p. Recall we reported earlier that American-born Mexican Ruiz produced one of the biggest shocks in heavyweight boxing history to take Joshua’s IBF, WBO and WBA world. Season 4 guide for The 100 TV series - see the episodes list with schedule and episode summary. The 100 Season 4 Episode 1. 6 GB) Black Mirror (2011) - S02E02 - White Bear (1080p BluRay x265 Panda). [ Cellphone chimes ] Rey: Let's find out what. TRG Dominator is the iconic firearm carried by enlisted Inspection and Enforcement officers of the Public Safety Bureau. Sonarr v3 will automatically convert the existing Sonarr v2 installation. ) Sorry Adam, I got $4. You can easily watch full episodes of The 100 TV Series. We picked the best sites to stream s04e01. if you go to www. This episode belongs to "The 100" tv-series. Subtitles TV Episode. "The clock is ticking, and it has been since we landed on this terrible, beautiful planet. Since its debut on December 17, 1989, 620 episodes of The Simpsons have been broadcast. Eliza Taylor believes that Clarke will fnd a new love in "The 100" Season 4 and Bellarke shippers are crossing their fingers that Bellamy and Clarke will end up together. Top Netflix TV Shows Online, The 100 TV Series Download HD quality full Streaming english subbed. [ Cellphone chimes ] Rey: Let's find out what. In the finale, “Praimfaya” arrived to change the Earth forever, yet humanity can claim. TRG Dominator is the iconic firearm carried by enlisted Inspection and Enforcement officers of the Public Safety Bureau. It doesn't matter that the show has 7 seasons and is on its last season. Finding Judas is a 3rd season episode of House which first aired on November 28, 2006. Posts tagged "the 100 season 4". Season 4 guide for The 100 TV series - see the episodes list with schedule and episode summary. Tidak ada iklan yang mengganggu. What marketing strategies does Hitcpm use? Get traffic statistics, SEO keyword opportunities, audience insights, and competitive analytics for Hitcpm. Season 3 36 A. For example, the CW Spring line up, the 100 is always only featured for one clip for about 3 seconds. Best and Free Online streaming for The 100 TV Show. You punch in all the shows you follow (for me, that's a lot), and then with the widget you can see what episodes are upcoming, and which were recently aired. Home » S, T or U » The 100 » Season 04. at informieren!. You punch in all the shows you follow (for me, that's a lot), and then with the widget you can see what episodes are upcoming, and which were recently aired. watch The 100 S04E11 in your mobile android or iOS smartphone devices in mp4 video format online. Clarke's decision on who gets to live causes tension in Arcadia. - Season Three was released to DVD on August 21, 2007. Just like last time, DVD commentary is only available for a small handful of episodes, so don't expect to be blown away by the bonus features. The 100 Season 4 fanart poster. The 100 season 6, episode 4 “The Face Behind the Glass,” is a stunning, heartbreaking hour of television. January 20, 2021 - 4:04pm. The space stations banded together to form a single. I do not own any the gifs unless stated otherwise and will happily credit the creators or. File: The 100 S04E11. TV Show : The 100. Season 4 of Battle Pass begins in World of Tanks on March 15. Actors: Eliza Taylor, Bob Morley, Marie Avgeropoulos, Isaiah Washington. Download atau nonton langsung tv series The 100 Season 4. The season's sub-plot revolves around billionaire Edward Vogler making a $100 million donation to the hospital. Victor: Name your price. Share this movie link to your friends.